extratorrent - A Fan Made Alternative Login   |   Register
Important Information
Registrations are open now
-------------------------------------

Please click here to register with Extratorrent2 to recieve latest updates, add bookmarks and to post comments.

Friends
Friends

1) ProxyFix

Extratorrent2 > Categories > TV > WWE RAW 2018 08 27 HDTV x264 AAC 1.5GB [HDFilmBoss] torrent


Browse TV torrents

WWE RAW 2018 08 27 HDTV x264 AAC 1.5GB [HDFilmBoss] torrent


Download torrent: Download WWE RAW 2018 08 27 HDTV x264 AAC 1.5GB [HDFilmBoss] torrent Magnet link Bookmark Torrent: WWE RAW 2018 08 27 HDTV x264 AAC 1.5GB [HDFilmBoss]   WWE RAW 2018 08 27 HDTV x264 AAC 1.5GB [HDFilmBoss] torrent
Info hash: 1FF5BC3DBCAE70D376A95F8434D0C74B87DF49B3
Category: Categories > TV
Trackers:
View all torrent trackers >
Health:
 seeds: 17 ,  leechers: 2 |  Update >
Torrent language: English English
Total Size: 1.5 GB
Files List:
1    View torrent files >
Uploader:
HDFilmBoss
Torrent added: September 7, 2018, 3:30 pm
Users rating: ---, not rated. please login to rate.

Download WWE RAW 2018 08 27 HDTV x264 AAC 1.5GB [HDFilmBoss] torrent



Torrent Description

http://hdfilmboss.net/



http://hdfilmboss.net/

General
Format                                   : MPEG-4
Format profile                           : Base Media / Version 2
Codec ID                                 : mp42 (isom/iso2/avc1/mp41)
File size                                : 1.49 GiB
Title                                    : HDFilmBoss.Net
Duration                                 : 2 h 25 min
Overall bit rate mode                    : Variable
Overall bit rate                         : 1 470 kb/s
Encoded date                             : UTC 2018-08-28 03:42:39
Tagged date                              : UTC 2018-08-28 03:42:39
Writing application                      : HandBrake 1.1.1 2018061800

Video
ID                                       : 1
Format                                   : AVC
Format/Info                              : Advanced Video Codec
Format profile                           :
Format settings                          : CABAC / 4 Ref Frames
Format settings, CABAC                   : Yes
Format settings, RefFrames               : 4 frames
Codec ID                                 : avc1
Codec ID/Info                            : Advanced Video Coding
Duration                                 : 2 h 25 min
Bit rate                                 : 1 300 kb/s
Width                                    : 712 pixels
Height                                   : 400 pixels
Display aspect ratio                     : 16:9
Frame rate mode                          : Constant
Frame rate                               : 29.970 (30000/1001) FPS
Color space                              : YUV
Chroma subsampling                       : 4:2:0
Bit depth                                : 8 bits
Scan type                                : Progressive
Bits/(Pixel*Frame)                       : 0.152
Stream size                              : 1.32 GiB (89%)
Title                                    : HDFilmBoss.Net
Writing library                          : x264 core 155 r2901 7d0ff22
Encoded date                             : UTC 2018-08-28 03:42:39
Tagged date                              : UTC 2018-08-28 03:42:39
Color range                              : Limited
Color primaries                          : BT.601 NTSC
Transfer characteristics                 : BT.709
Matrix coefficients                      : BT.601

Audio
ID                                       : 2
Format                                   : AAC
Format/Info                              : Advanced Audio Codec
Format profile                           : LC
Codec ID                                 : mp4a-40-2
Duration                                 : 2 h 25 min
Bit rate mode                            : Variable
Bit rate                                 : 160 kb/s
Channel(s)                               : 2 channels
Channel positions                        : Front: L R
Sampling rate                            : 48.0 kHz
Frame rate                               : 46.875 FPS (1024 SPF)
Compression mode                         : Lossy
Stream size                              : 167 MiB (11%)
Title                                    : HDFilmBoss.Net
Default                                  : Yes
Alternate group                          : 1





[url=http://hdfilmboss.net/]http://hdfilmboss.net/




Download WWE RAW 2018 08 27 HDTV x264 AAC 1.5GB [HDFilmBoss] torrent


Related Torrents


Comments   (please login to add your comment!)

ac3 evo     anal rough     fuck     kim kardashian nude     dcs legends     hip     abp 418     gym     720p hindi 2018 aac     big ass anal cream pie     and tv     dumb     blondes     slut fuck     all money     criterion 720p     2007 720p     all the     dual audio hindi eng     solo xxx     filter     bara bara mp4     camille black     hot pictures     


Home - Browse Torrents

Made with love by an Extratorrent Fan!